Файл:Гюмри.mp4

Материал из CompromatWiki
Перейти к: навигация, поиск
Исходный файл(Аудио/видеофайл MP4 h.264, длина — 4 м 39 с, 854 × 480 пикселей, битрейт — 1 Кб/с)

Краткое описание

Описание Акция протеста перед военной базы
Источник http://www.youtube.com/watch?v=cZTpxVIy34M
Время создания 2015-01-16 21:42:50
Автор http://www.youtube.com/watch?v=cZTpxVIy34M
[[Has description::Акция протеста перед военной базы |]]


Лицензирование

{{subst:uwl}}



История файла

Нажмите на дату/время, чтобы просмотреть, как тогда выглядел файл.

Дата/времяМиниатюраРазмерыУчастникПримечание
текущий16:20, 16 января 2015
Ошибка создания миниатюры: '/usr/bin/ffmpeg' -threads 1 -ss 136 -y -i '/var/www/wiki/files/compromat.wiki/Гюмри.mp4' -ss 3 -s 854x480 -f mjpeg -an -vframes 1 '/tmp/transform_c7b3e677260c-1.jpg' 2>&1
wgMaxShellMemory: 1024000
ffmpeg version 0.8.17-6:0.8.17-1, Copyright (c) 2000-2014 the Libav developers
built on Mar 15 2015 17:00:31 with gcc 4.7.2
The ffmpeg program is only provided for script compatibility and will be removed
in a future release. It has been deprecated in the Libav project to allow for
incompatible command line syntax improvements in its replacement called avconv
(see Changelog for details). Please use avconv instead.
/var/www/wiki/files/compromat.wiki/Гюмри.mp4: could not seek to position 415.100
Input #0, mov,mp4,m4a,3gp,3g2,mj2, from '/var/www/wiki/files/compromat.wiki/Гюмри.mp4':
Metadata:
major_brand : dash
minor_version : 0
compatible_brands: iso6avc1mp41
creation_time : 2015-01-15 04:34:50
Duration: 00:09:18.20, start: 279.100000, bitrate: 507 kb/s
Stream #0.0(und): Video: h264 (Main), yuv420p, 854x480 [PAR 1:1 DAR 427:240], 30 tbr, 90k tbn, 60 tbc
Metadata:
creation_time : 2015-01-15 04:34:50
Incompatible pixel format 'yuv420p' for codec 'mjpeg', auto-selecting format 'yuvj420p'
[buffer @ 0x20a04a0] w:854 h:480 pixfmt:yuv420p
[avsink @ 0x207c540] auto-inserting filter 'auto-inserted scaler 0' between the filter 'src' and the filter 'out'
[scale @ 0x2075160] w:854 h:480 fmt:yuv420p -> w:854 h:480 fmt:yuvj420p flags:0x4
Output #0, mjpeg, to '/tmp/transform_c7b3e677260c-1.jpg':
Metadata:
major_brand : dash
minor_version : 0
compatible_brands: iso6avc1mp41
creation_time : 2015-01-15 04:34:50
encoder : Lavf53.21.1
Stream #0.0(und): Video: mjpeg, yuvj420p, 854x480 [PAR 1:1 DAR 427:240], q=2-31, 200 kb/s, 90k tbn, 30 tbc
Metadata:
creation_time : 2015-01-15 04:34:50
Stream mapping:
Stream #0.0 -> #0.0
Press ctrl-c to stop encoding
frame= 0 fps= 0 q=0.0 Lsize= 0kB time=10000000000.00 bitrate= 0.0kbits/s
video:0kB audio:0kB global headers:0kB muxing overhead -nan%
4 м 39 с, 854 × 480 (33,8 МБ)Lara135 (обсуждение | вклад)User created page with UploadWizard
  • Вы не можете перезаписать этот файл.

Нет страниц, ссылающихся на данный файл.

Состояние декодирования

Обновить статус декодирования
СостояниеОписание производных декодированияСкачать модифицированный вариант